<?xml version="1.0" standalone="no"?>
<!DOCTYPE svg PUBLIC "-//W3C//DTD SVG 1.1//EN" "http://www.w3.org/Graphics/SVG/1.1/DTD/svg11.dtd" >
<svg xmlns="http://www.w3.org/2000/svg" xmlns:xlink="http://www.w3.org/1999/xlink" version="1.1">
<metadata></metadata>
<defs>
<font id="FontStuck-Extended" horiz-adv-x="448" >
<font-face units-per-em="1024" ascent="819" descent="-205" />
<missing-glyph horiz-adv-x="320" />
<glyph horiz-adv-x="0" />
<glyph horiz-adv-x="341" />
<glyph unicode=" "  horiz-adv-x="320" />
<glyph unicode="&#x09;" horiz-adv-x="320" />
<glyph unicode="&#xa0;" horiz-adv-x="320" />
<glyph unicode="!" horiz-adv-x="192" d="M0 0v64h128v-64h-128zM0 128v384h128v-384h-128z" />
<glyph unicode="&#x22;" horiz-adv-x="256" d="M0 256v256h64v-256h-64zM128 256v256h64v-256h-64z" />
<glyph unicode="#" horiz-adv-x="512" d="M256 256v64h-64v-64h64zM64 0v192h-64v64h64v64h-64v64h64v192h128v-192h64v192h128v-192h64v-64h-64v-64h64v-64h-64v-192h-128v192h-64v-192h-128z" />
<glyph unicode="$" d="M128 -128v128h-128v192h128v-128h128v128h-128v64h-128v192h64v64h128v64h64v-64h128v-128h-128v64h-128v-128h192v-64h64v-192h-64v-64h-128v-128h-64z" />
<glyph unicode="%" d="M192 0v64h128v-64h-128zM128 64v128h64v-128h-64zM320 64v128h64v-128h-64zM0 192v64h128v-64h-128zM192 192v64h-64v64h-64v64h128v-64h64v-64h64v-64h-128zM256 320v64h128v-64h-128zM0 384v128h64v-128h-64zM192 384v128h64v-128h-64zM64 512v64h128v-64h-128z" />
<glyph unicode="&#x26;" horiz-adv-x="512" d="M256 64v64h-64v64h-64v-128h128zM64 0v64h-64v192h64v192h64v64h256v-64h-192v-192h64v-64h64v64h128v-64h-64v-128h64v-64h-384z" />
<glyph unicode="'" horiz-adv-x="128" d="M0 256v256h64v-256h-64z" />
<glyph unicode="(" horiz-adv-x="256" d="M128 -128v64h-64v128h-64v320h64v128h64v64h64v-128h-64v-448h64v-128h-64z" />
<glyph unicode=")" horiz-adv-x="256" d="M0 -128v128h64v448h-64v128h64v-64h64v-128h64v-320h-64v-128h-64v-64h-64z" />
<glyph unicode="*" d="M64 192v192h-64v64h128v128h128v-128h128v-64h-64v-192h-64v64h-128v-64h-64z" />
<glyph unicode="+" horiz-adv-x="512" d="M192 0v192h-192v64h192v192h64v-192h192v-64h-192v-192h-64z" />
<glyph unicode="," horiz-adv-x="256" d="M0 -128v128h64v128h128v-64h-64v-128h-64v-64h-64z" />
<glyph unicode="-" d="M0 192v64h384v-64h-384z" />
<glyph unicode="." horiz-adv-x="192" d="M0 0v128h128v-128h-128z" />
<glyph unicode="/" d="M0 -128v128h64v192h64v128h64v192h64v128h128v-128h-64v-192h-64v-128h-64v-192h-64v-128h-128z" />
<glyph unicode="0" d="M256 64v448h-128v-448h128zM64 0v64h-64v448h64v64h256v-64h64v-448h-64v-64h-256z" />
<glyph unicode="1" d="M0 0v64h128v384h-128v64h128v64h128v-512h128v-64h-384z" />
<glyph unicode="2" d="M0 0v128h64v64h64v64h64v64h64v192h-128v-128h-128v128h64v64h256v-64h64v-192h-64v-64h-64v-64h-64v-64h-64v-64h256v-64h-384z" />
<glyph unicode="3" d="M0 64v64h64v-64h-64zM0 448v64h64v-64h-64zM64 0v64h192v192h-128v64h128v192h-192v64h256v-64h64v-192h-64v-64h64v-192h-64v-64h-256z" />
<glyph unicode="4" horiz-adv-x="512" d="M256 192v192h-64v-128h-64v-64h128zM128 0v64h128v64h-256v64h64v128h64v128h64v128h192v-384h64v-64h-64v-64h64v-64h-320z" />
<glyph unicode="5" d="M0 64v64h64v-64h-64zM64 0v64h192v256h-128v-64h-64v320h320v-64h-192v-128h128v-64h64v-256h-64v-64h-256z" />
<glyph unicode="6" d="M64 0v64h-64v384h64v64h64v64h256v-64h-192v-64h-64v-128h64v-64h-64v-192h128v256h-64v64h128v-64h64v-256h-64v-64h-256z" />
<glyph unicode="7" d="M128 0v192h64v256h64v64h-192v-64h-64v128h384v-192h-64v-256h-64v-128h-128z" />
<glyph unicode="8" d="M256 64v192h-128v-192h128zM256 320v192h-128v-192h128zM64 0v64h-64v192h64v64h-64v192h64v64h256v-64h64v-192h-64v-64h64v-192h-64v-64h-256z" />
<glyph unicode="9" d="M0 0v64h192v64h64v128h-64v64h64v192h-128v-256h64v-64h-128v64h-64v256h64v64h256v-64h64v-384h-64v-64h-64v-64h-256z" />
<glyph unicode=":" horiz-adv-x="192" d="M0 0v128h128v-128h-128zM0 256v128h128v-128h-128z" />
<glyph unicode=";" horiz-adv-x="256" d="M0 -128v128h64v-128h-64zM64 0v128h128v-64h-64v-64h-64zM64 256v128h128v-128h-128z" />
<glyph unicode="&#x3c;" horiz-adv-x="576" d="M384 0v64h128v-64h-128zM256 64v64h128v-64h-128zM128 128v64h128v-64h-128zM0 192v64h128v-64h-128zM128 256v64h128v-64h-128zM256 320v64h128v-64h-128zM384 384v64h128v-64h-128z" />
<glyph unicode="=" horiz-adv-x="512" d="M0 128v64h448v-64h-448zM0 256v64h448v-64h-448z" />
<glyph unicode="&#x3e;" horiz-adv-x="576" d="M0 0v64h128v-64h-128zM128 64v64h128v-64h-128zM256 128v64h128v-64h-128zM384 192v64h128v-64h-128zM256 256v64h128v-64h-128zM128 320v64h128v-64h-128zM0 384v64h128v-64h-128z" />
<glyph unicode="?" horiz-adv-x="384" d="M64 0v64h128v-64h-128zM64 128v128h64v64h64v128h-64v-64h-128v64h64v64h192v-64h64v-192h-64v-64h-64v-64h-128z" />
<glyph unicode="@" d="M128 -64v64h192v-64h-192zM64 0v64h64v-64h-64zM320 0v64h64v-64h-64zM128 192v128h64v-128h-64zM0 64v384h64v-384h-64zM64 448v64h64v-64h-64zM192 128v64h128v128h-128v64h128v128h64v-384h-192zM128 512v64h192v-64h-192z" />
<glyph unicode="A" horiz-adv-x="640" d="M320 192v192h-64v-192h64zM0 0v64h64v128h64v192h64v64h-128v64h320v-128h64v-192h64v-128h64v-64h-256v64h64v64h-192v-64h64v-64h-256z" />
<glyph unicode="B" horiz-adv-x="512" d="M320 64v192h-128v-192h128zM320 320v128h-128v-128h128zM0 0v64h64v384h-64v64h384v-64h64v-128h-64v-64h64v-192h-64v-64h-384z" />
<glyph unicode="C" d="M320 64v64h64v-64h-64zM128 0v64h-64v64h-64v256h64v64h64v64h256v-128h-64v64h-128v-64h-64v-256h64v-64h128v-64h-192z" />
<glyph unicode="D" horiz-adv-x="512" d="M256 64v64h64v256h-64v64h-64v-384h64zM0 0v64h64v384h-64v64h320v-64h64v-64h64v-256h-64v-64h-64v-64h-320z" />
<glyph unicode="E" horiz-adv-x="512" d="M0 0v64h64v384h-64v64h448v-192h-64v128h-192v-128h64v64h64v-192h-64v64h-64v-192h192v128h64v-192h-448z" />
<glyph unicode="F" horiz-adv-x="512" d="M0 0v64h64v384h-64v64h448v-192h-64v128h-192v-128h64v64h64v-192h-64v64h-64v-192h128v-64h-320z" />
<glyph unicode="G" horiz-adv-x="512" d="M64 0v64h-64v384h64v64h320v-192h-64v128h-192v-384h128v128h-64v64h256v-64h-64v-128h-64v-64h-256z" />
<glyph unicode="H" horiz-adv-x="576" d="M0 0v64h64v384h-64v64h192v-192h128v192h192v-64h-64v-384h64v-64h-192v256h-128v-256h-192z" />
<glyph unicode="I" d="M0 0v64h128v384h-128v64h384v-64h-128v-384h128v-64h-384z" />
<glyph unicode="J" horiz-adv-x="576" d="M0 0v256h128v-192h128v384h-192v64h448v-64h-128v-384h-64v-64h-320z" />
<glyph unicode="K" horiz-adv-x="576" d="M0 0v64h64v384h-64v64h256v-64h-64v-128h64v64h64v128h192v-64h-64v-64h-64v-64h-64v-64h64v-64h64v-128h64v-64h-128v64h-64v128h-128v-128h64v-64h-256z" />
<glyph unicode="L" horiz-adv-x="512" d="M0 0v64h64v384h-64v64h256v-64h-64v-384h192v64h64v-128h-448z" />
<glyph unicode="M" horiz-adv-x="640" d="M256 128v128h64v-128h-64zM0 0v64h64v384h-64v64h192v-64h64v-192h-64v-192h64v-64h-256zM320 0v64h64v192h-64v192h64v64h192v-64h-64v-384h64v-64h-256z" />
<glyph unicode="N" horiz-adv-x="576" d="M0 0v64h64v384h-64v64h192v-128h64v-128h-64v-192h64v-64h-256zM320 0v128h-64v128h64v192h-64v64h256v-64h-64v-448h-128z" />
<glyph unicode="O" d="M256 64v384h-128v-384h128zM64 0v64h-64v384h64v64h256v-64h64v-384h-64v-64h-256z" />
<glyph unicode="P" horiz-adv-x="512" d="M320 256v192h-128v-192h128zM0 0v64h64v384h-64v64h384v-64h64v-192h-64v-64h-192v-128h128v-64h-320z" />
<glyph unicode="Q" d="M320 -64v64h64v-64h-64zM256 64v384h-128v-384h128zM128 -128v128h-64v64h-64v384h64v64h256v-64h64v-384h-64v-64h-64v-64h64v-64h-192z" />
<glyph unicode="R" horiz-adv-x="576" d="M320 256v192h-128v-192h128zM0 0v64h64v384h-64v64h384v-64h64v-192h-64v-128h64v-64h64v-64h-128v64h-64v64h-64v64h-64v-128h64v-64h-256z" />
<glyph unicode="S" d="M0 0v128h128v-64h128v128h-128v64h-64v64h-64v128h64v64h320v-128h-128v64h-128v-128h128v-64h64v-64h64v-128h-64v-64h-320z" />
<glyph unicode="T" d="M64 0v64h64v384h-64v-128h-64v192h384v-192h-64v128h-64v-384h64v-64h-256z" />
<glyph unicode="U" horiz-adv-x="576" d="M128 0v64h-64v384h-64v64h192v-448h128v448h192v-64h-64v-384h-64v-64h-256z" />
<glyph unicode="V" horiz-adv-x="640" d="M192 0v128h-64v192h-64v128h-64v64h256v-64h-64v-128h64v-192h64v192h64v128h-64v64h256v-64h-64v-128h-64v-192h-64v-128h-192z" />
<glyph unicode="W" horiz-adv-x="640" d="M128 0v192h-64v256h-64v64h256v-64h-64v-128h64v64h64v-64h64v128h-64v64h256v-64h-64v-256h-64v-192h-128v256h-64v-256h-128z" />
<glyph unicode="X" horiz-adv-x="576" d="M0 0v64h64v64h64v64h64v128h-64v64h-64v64h-64v64h192v-128h128v64h-64v64h256v-64h-64v-64h-64v-64h-64v-128h64v-64h64v-64h64v-64h-192v128h-128v-64h64v-64h-256z" />
<glyph unicode="Y" horiz-adv-x="576" d="M64 0v64h128v192h-64v128h-64v64h-64v64h192v-192h128v128h-64v64h256v-64h-64v-64h-64v-128h-64v-192h128v-64h-384z" />
<glyph unicode="Z" d="M0 0v128h64v64h64v128h64v64h64v64h-192v-128h-64v192h384v-128h-64v-64h-64v-128h-64v-64h-64v-64h192v128h64v-192h-384z" />
<glyph unicode="[" horiz-adv-x="320" d="M0 -128v704h256v-64h-128v-576h128v-64h-256z" />
<glyph unicode="\" d="M256 -128v128h-64v192h-64v128h-64v192h-64v128h128v-128h64v-192h64v-128h64v-192h64v-128h-128z" />
<glyph unicode="]" horiz-adv-x="320" d="M0 -128v64h128v576h-128v64h256v-704h-256z" />
<glyph unicode="^" horiz-adv-x="384" d="M0 320v64h64v-64h-64zM256 320v64h64v-64h-64zM64 384v128h64v-128h-64zM192 384v128h64v-128h-64zM128 512v64h64v-64h-64z" />
<glyph unicode="_" horiz-adv-x="640" d="M0 -256v64h576v-64h-576z" />
<glyph unicode="`" horiz-adv-x="192" d="M64 448v64h64v-64h-64zM0 512v64h64v-64h-64z" />
<glyph unicode="a" horiz-adv-x="512" d="M256 64v128h-128v-128h128zM64 0v64h-64v128h64v64h192v64h-192v64h256v-64h64v-256h64v-64h-384z" />
<glyph unicode="b" horiz-adv-x="512" d="M256 0v64h64v256h-64v64h128v-64h64v-256h-64v-64h-128zM0 0v64h64v448h-64v64h192v-256h64v-64h-64v-128h64v-64h-64v-64h-192z" />
<glyph unicode="c" d="M320 64v64h64v-64h-64zM64 0v64h-64v256h64v64h320v-192h-64v128h-192v-256h192v-64h-256z" />
<glyph unicode="d" horiz-adv-x="512" d="M64 0v64h-64v256h64v64h128v-64h-64v-256h64v-64h-128zM256 0v64h-64v64h64v128h-64v64h64v192h-64v64h192v-512h64v-64h-192z" />
<glyph unicode="e" d="M320 64v64h64v-64h-64zM256 256v64h-128v-64h128zM64 0v64h-64v256h64v64h256v-64h64v-128h-256v-128h192v-64h-256z" />
<glyph unicode="f" horiz-adv-x="576" d="M0 0v64h128v256h-128v64h128v128h64v64h320v-64h-256v-128h192v-64h-192v-256h192v-64h-448z" />
<glyph unicode="g" horiz-adv-x="512" d="M64 0v64h-64v256h64v64h128v-64h-64v-256h64v-64h-128zM64 -192v64h192v192h-64v64h64v128h-64v64h64v64h192v-64h-64v-448h-64v-64h-256z" />
<glyph unicode="h" horiz-adv-x="576" d="M0 0v64h64v448h-64v64h192v-192h192v-64h64v-256h64v-64h-192v320h-128v-320h-192z" />
<glyph unicode="i" d="M0 0v64h128v256h-128v64h256v-320h128v-64h-384zM128 448v128h128v-128h-128z" />
<glyph unicode="j" d="M0 -192v64h256v448h-256v64h384v-512h-64v-64h-320zM192 448v128h128v-128h-128z" />
<glyph unicode="k" horiz-adv-x="576" d="M0 0v64h64v448h-64v64h192v-320h64v128h192v-64h-64v-64h-64v-64h64v-64h64v-64h64v-64h-256v64h64v64h-128v-128h-192z" />
<glyph unicode="l" horiz-adv-x="576" d="M0 0v64h192v448h-128v64h256v-512h192v-64h-512z" />
<glyph unicode="m" horiz-adv-x="704" d="M0 0v64h64v256h-64v64h512v-64h64v-256h64v-64h-192v320h-64v-320h-128v320h-64v-320h-192z" />
<glyph unicode="n" horiz-adv-x="576" d="M0 0v64h64v256h-64v64h384v-64h64v-256h64v-64h-192v320h-128v-320h-192z" />
<glyph unicode="o" d="M256 64v256h-128v-256h128zM64 0v64h-64v256h64v64h256v-64h64v-256h-64v-64h-256z" />
<glyph unicode="p" horiz-adv-x="512" d="M0 -192v64h64v448h-64v64h192v-64h64v-64h-64v-128h64v-64h-64v-192h128v-64h-320zM256 0v64h64v256h-64v64h128v-64h64v-256h-64v-64h-128z" />
<glyph unicode="q" horiz-adv-x="512" d="M64 0v64h-64v256h64v64h128v-64h-64v-256h64v-64h-128zM128 -192v64h128v192h-64v64h64v128h-64v64h64v64h192v-64h-64v-448h64v-64h-320z" />
<glyph unicode="r" horiz-adv-x="512" d="M0 0v64h128v256h-128v64h256v-64h64v-64h-64v-192h192v-64h-448zM384 256v64h-64v64h128v-128h-64z" />
<glyph unicode="s" d="M0 0v128h128v-64h128v64h-128v64h-128v128h64v64h320v-128h-128v64h-128v-64h128v-64h128v-128h-64v-64h-320z" />
<glyph unicode="t" d="M320 64v64h64v-64h-64zM128 0v64h-64v256h-64v64h64v128h128v-128h128v-64h-128v-256h128v-64h-192z" />
<glyph unicode="u" horiz-adv-x="576" d="M128 0v64h-64v256h-64v64h192v-320h128v256h-64v64h192v-320h64v-64h-384z" />
<glyph unicode="v" horiz-adv-x="512" d="M128 0v192h-64v128h-64v64h192v-256h64v256h192v-64h-64v-128h-64v-192h-192z" />
<glyph unicode="w" horiz-adv-x="640" d="M128 0v192h-64v128h-64v64h192v-128h64v64h64v-64h64v128h192v-64h-64v-128h-64v-192h-64v64h-64v128h-64v-128h-64v-64h-64z" />
<glyph unicode="x" horiz-adv-x="576" d="M0 0v64h64v64h64v128h-64v64h-64v64h192v-128h128v128h192v-64h-64v-64h-64v-128h64v-64h64v-64h-192v128h-128v-128h-192z" />
<glyph unicode="y" horiz-adv-x="576" d="M0 -192v64h128v128h64v64h-64v128h-64v128h-64v64h256v-64h-64v-192h64v128h64v128h192v-64h-64v-64h-64v-128h-64v-128h-64v-128h64v-64h-320z" />
<glyph unicode="z" d="M0 0v128h64v64h64v64h64v64h-128v-64h-64v128h384v-64h-64v-64h-64v-64h-64v-64h-64v-64h192v64h64v-128h-384z" />
<glyph unicode="{" horiz-adv-x="320" d="M128 -128v64h-64v256h-64v64h64v256h64v64h128v-64h-64v-256h-64v-64h64v-256h64v-64h-128z" />
<glyph unicode="|" horiz-adv-x="192" d="M0 -128v640h128v-640h-128z" />
<glyph unicode="}" horiz-adv-x="320" d="M0 -128v64h64v256h64v64h-64v256h-64v64h128v-64h64v-256h64v-64h-64v-256h-64v-64h-128z" />
<glyph unicode="~" horiz-adv-x="384" d="M192 128v64h64v-64h-64zM0 192v64h64v-64h-64zM128 192v64h64v-64h-64zM256 192v64h64v-64h-64zM64 256v64h64v-64h-64z" />
<glyph unicode="&#xa1;" horiz-adv-x="192" d="M0 -192v448h128v-448h-128zM0 320v64h128v-64h-128z" />
<glyph unicode="&#xa2;" d="M320 128v64h64v-64h-64zM192 -64v128h-64v64h-64v64h-64v192h64v64h64v64h64v128h64v-128h128v-192h-64v128h-128v-64h-64v-192h64v-64h128v-64h-64v-128h-64z" />
<glyph unicode="&#xa3;" horiz-adv-x="512" d="M320 384v64h64v-64h-64zM0 0v64h64v64h64v128h-128v64h64v128h64v64h192v-64h-128v-128h128v-64h-64v-128h-64v-64h128v64h128v-128h-448z" />
<glyph unicode="&#xa4;" horiz-adv-x="576" d="M320 128v192h-128v-192h128zM0 0v128h64v192h-64v128h128v-64h256v64h128v-128h-64v-192h64v-128h-128v64h-256v-64h-128z" />
<glyph unicode="&#xa5;" horiz-adv-x="576" d="M64 0v64h128v64h-128v64h128v64h-128v64h64v64h-64v64h-64v64h256v-64h-64v-64h64v-64h64v192h192v-64h-64v-64h-64v-64h64v-64h-128v-64h128v-64h-128v-64h128v-64h-384z" />
<glyph unicode="&#xa6;" horiz-adv-x="192" d="M0 -128v320h128v-320h-128zM0 256v320h128v-320h-128z" />
<glyph unicode="&#xa7;" d="M64 -64v192h64v-128h128v-64h-192zM192 128v64h64v-64h-64zM64 192v64h128v-64h-128zM256 0v128h64v128h64v-192h-64v-64h-64zM192 256v64h128v-64h-128zM128 320v64h64v-64h-64zM0 256v192h64v64h64v-128h-64v-128h-64zM256 384v128h-128v64h192v-192h-64z" />
<glyph unicode="&#xa8;" horiz-adv-x="320" d="M0 448v64h64v-64h-64zM192 448v64h64v-64h-64z" />
<glyph unicode="&#xa9;" horiz-adv-x="576" d="M128 0v64h256v-64h-256zM64 64v64h64v-64h-64zM384 64v64h64v-64h-64zM192 128v64h192v-64h-192zM128 192v128h64v-128h-64zM0 128v256h64v-256h-64zM320 256v64h-128v64h192v-128h-64zM448 128v256h64v-256h-64zM64 384v64h64v-64h-64zM384 384v64h64v-64h-64zM128 448 v64h256v-64h-256z" />
<glyph unicode="&#xaa;" horiz-adv-x="384" d="M0 384v64h64v-64h-64zM64 320v64h128v64h-128v64h-64v64h192v-64h64v-128h64v-64h-256z" />
<glyph unicode="&#xab;" horiz-adv-x="512" d="M128 0v64h64v-64h-64zM384 0v64h64v-64h-64zM64 64v64h64v-64h-64zM320 64v64h64v-64h-64zM0 128v128h64v-128h-64zM256 128v128h64v-128h-64zM64 256v64h64v-64h-64zM320 256v64h64v-64h-64zM128 320v64h64v-64h-64zM384 320v64h64v-64h-64z" />
<glyph unicode="&#xac;" horiz-adv-x="512" d="M384 0v192h-384v64h448v-256h-64z" />
<glyph unicode="&#xad;" d="M0 192v64h384v-64h-384z" />
<glyph unicode="&#xae;" horiz-adv-x="576" d="M128 0v64h256v-64h-256zM64 64v64h64v-64h-64zM384 64v64h64v-64h-64zM320 128v64h64v-64h-64zM0 128v256h64v-256h-64zM128 128v64h64v128h-64v64h256v-128h-64v64h-64v-64h64v-64h-64v-64h-128zM448 128v256h64v-256h-64zM64 384v64h64v-64h-64zM384 384v64h64v-64h-64 zM128 448v64h256v-64h-256z" />
<glyph unicode="&#xaf;" horiz-adv-x="640" d="M0 576v64h576v-64h-576z" />
<glyph unicode="&#xb0;" horiz-adv-x="320" d="M64 320v64h128v-64h-128zM0 384v128h64v-128h-64zM192 384v128h64v-128h-64zM64 512v64h128v-64h-128z" />
<glyph unicode="&#xb1;" horiz-adv-x="512" d="M0 0v64h448v-64h-448zM192 128v192h-192v64h192v192h64v-192h192v-64h-192v-192h-64z" />
<glyph unicode="&#xb2;" horiz-adv-x="256" d="M0 256v64h64v64h64v-64h64v-64h-192zM128 384v128h-128v64h192v-192h-64z" />
<glyph unicode="&#xb3;" horiz-adv-x="320" d="M0 256v64h192v64h64v-128h-256zM64 384v64h128v-64h-128zM192 448v64h-192v64h256v-128h-64z" />
<glyph unicode="&#xb4;" horiz-adv-x="192" d="M0 448v64h64v-64h-64zM64 512v64h64v-64h-64z" />
<glyph unicode="&#xb5;" horiz-adv-x="576" d="M64 -192v512h-64v64h192v-320h128v256h-64v64h192v-320h64v-64h-320v-192h-128z" />
<glyph unicode="&#xb6;" horiz-adv-x="512" d="M192 320v192h-64v-192h64zM320 0v512h-64v-512h64zM64 -64v64h128v256h-128v64h-64v192h64v64h384v-64h-64v-512h64v-64h-384z" />
<glyph unicode="&#xb7;" horiz-adv-x="192" d="M0 192v128h128v-128h-128z" />
<glyph unicode="&#xb8;" horiz-adv-x="256" d="M0 -256v64h128v64h-64v192h64v-128h64v-192h-192z" />
<glyph unicode="&#xb9;" horiz-adv-x="256" d="M0 256v64h64v192h-64v64h128v-256h64v-64h-192z" />
<glyph unicode="&#xba;" horiz-adv-x="384" d="M64 320v64h192v-64h-192zM0 384v128h64v-128h-64zM256 384v128h64v-128h-64zM64 512v64h192v-64h-192z" />
<glyph unicode="&#xbb;" horiz-adv-x="512" d="M0 0v64h64v-64h-64zM256 0v64h64v-64h-64zM64 64v64h64v-64h-64zM320 64v64h64v-64h-64zM128 128v128h64v-128h-64zM384 128v128h64v-128h-64zM64 256v64h64v-64h-64zM320 256v64h64v-64h-64zM0 320v64h64v-64h-64zM256 320v64h64v-64h-64z" />
<glyph unicode="&#xbc;" horiz-adv-x="576" d="M128 128v64h64v-64h-64zM192 192v64h64v-64h-64zM320 0v64h64v64h-128v64h64v64h-64v128h64v-64h128v-128h64v-64h-64v-64h64v-64h-192zM320 384v64h64v-64h-64zM384 448v64h64v-64h-64zM0 256v64h64v192h-64v64h128v-256h64v-64h-192z" />
<glyph unicode="&#xbd;" horiz-adv-x="576" d="M256 0v64h64v64h64v-64h128v-64h-256zM64 128v64h64v-64h-64zM384 128v64h64v-64h-64zM384 384v64h64v-64h-64zM128 192v64h-128v64h64v192h-64v64h128v-256h128v64h128v-64h128v-128h-64v64h-256v-64h-64z" />
<glyph unicode="&#xbe;" horiz-adv-x="576" d="M64 128v64h64v-64h-64zM320 0v64h64v64h-128v64h64v128h-64v-64h-64v-64h-64v64h-128v64h192v64h192v-64h64v-128h64v-64h-64v-64h64v-64h-192zM64 384v64h128v-64h-128zM384 384v64h64v-64h-64zM192 448v64h-192v64h256v-128h-64z" />
<glyph unicode="&#xbf;" horiz-adv-x="384" d="M64 -192v64h-64v256h64v128h128v-192h-64v-192h64v64h128v-64h-64v-64h-192zM64 320v64h128v-64h-128z" />
<glyph unicode="&#xc0;" horiz-adv-x="640" d="M320 192v192h-64v-192h64zM0 0v64h64v128h64v192h64v64h-128v64h320v-128h64v-192h64v-128h64v-64h-256v64h64v64h-192v-64h64v-64h-256zM256 576v64h64v-64h-64zM192 640v64h64v-64h-64z" />
<glyph unicode="&#xc1;" horiz-adv-x="640" d="M320 192v192h-64v-192h64zM0 0v64h64v128h64v192h64v64h-128v64h320v-128h64v-192h64v-128h64v-64h-256v64h64v64h-192v-64h64v-64h-256zM192 576v64h64v-64h-64zM256 640v64h64v-64h-64z" />
<glyph unicode="&#xc2;" horiz-adv-x="640" d="M320 192v192h-64v-192h64zM0 0v64h64v128h64v192h64v64h-128v64h320v-128h64v-192h64v-128h64v-64h-256v64h64v64h-192v-64h64v-64h-256zM128 576v64h64v-64h-64zM320 576v64h64v-64h-64zM192 640v64h128v-64h-128z" />
<glyph unicode="&#xc3;" horiz-adv-x="640" d="M320 192v192h-64v-192h64zM0 0v64h64v128h64v192h64v64h-128v64h320v-128h64v-192h64v-128h64v-64h-256v64h64v64h-192v-64h64v-64h-256zM128 576v128h128v-64h-64v-64h-64zM256 576v64h64v64h64v-128h-128z" />
<glyph unicode="&#xc4;" horiz-adv-x="640" d="M320 192v192h-64v-192h64zM0 0v64h64v128h64v192h64v64h-128v64h320v-128h64v-192h64v-128h64v-64h-256v64h64v64h-192v-64h64v-64h-256zM128 576v64h64v-64h-64zM320 576v64h64v-64h-64z" />
<glyph unicode="&#xc5;" horiz-adv-x="640" d="M320 192v192h-64v-192h64zM0 0v64h64v128h64v192h64v64h-128v64h320v-128h64v-192h64v-128h64v-64h-256v64h64v64h-192v-64h64v-64h-256zM320 640v64h-64v-64h64zM192 576v192h192v-192h-192z" />
<glyph unicode="&#xc6;" horiz-adv-x="704" d="M256 64v64h-128v-64h128zM0 0v64h64v128h64v192h64v-192h64v192h-64v64h-64v64h512v-192h-64v128h-192v-128h64v64h64v-192h-64v64h-64v-192h192v128h64v-192h-640z" />
<glyph unicode="&#xc7;" d="M320 64v64h64v-64h-64zM128 -256v64h128v64h-64v128h-64v64h-64v64h-64v256h64v64h64v64h256v-128h-64v64h-128v-64h-64v-256h64v-64h128v-64h-64v-64h64v-192h-192z" />
<glyph unicode="&#xc8;" horiz-adv-x="512" d="M0 0v64h64v384h-64v64h448v-192h-64v128h-192v-128h64v64h64v-192h-64v64h-64v-192h192v128h64v-192h-448zM256 576v64h64v-64h-64zM192 640v64h64v-64h-64z" />
<glyph unicode="&#xc9;" horiz-adv-x="512" d="M0 0v64h64v384h-64v64h448v-192h-64v128h-192v-128h64v64h64v-192h-64v64h-64v-192h192v128h64v-192h-448zM192 576v64h64v-64h-64zM256 640v64h64v-64h-64z" />
<glyph unicode="&#xca;" horiz-adv-x="512" d="M0 0v64h64v384h-64v64h448v-192h-64v128h-192v-128h64v64h64v-192h-64v64h-64v-192h192v128h64v-192h-448zM192 576v64h64v-64h-64zM320 576v64h64v-64h-64zM256 640v64h64v-64h-64z" />
<glyph unicode="&#xcb;" horiz-adv-x="512" d="M0 0v64h64v384h-64v64h448v-192h-64v128h-192v-128h64v64h64v-192h-64v64h-64v-192h192v128h64v-192h-448zM128 576v64h64v-64h-64zM320 576v64h64v-64h-64z" />
<glyph unicode="&#xcc;" d="M0 0v64h128v384h-128v64h384v-64h-128v-384h128v-64h-384zM192 576v64h64v-64h-64zM128 640v64h64v-64h-64z" />
<glyph unicode="&#xcd;" d="M0 0v64h128v384h-128v64h384v-64h-128v-384h128v-64h-384zM128 576v64h64v-64h-64zM192 640v64h64v-64h-64z" />
<glyph unicode="&#xce;" d="M0 0v64h128v384h-128v64h384v-64h-128v-384h128v-64h-384zM128 576v64h64v-64h-64zM256 576v64h64v-64h-64zM192 640v64h64v-64h-64z" />
<glyph unicode="&#xcf;" d="M0 0v64h128v384h-128v64h384v-64h-128v-384h128v-64h-384zM64 576v64h64v-64h-64zM256 576v64h64v-64h-64z" />
<glyph unicode="&#xd0;" horiz-adv-x="512" d="M256 64v64h64v256h-64v64h-64v-128h64v-64h-64v-192h64zM0 0v64h64v192h-64v64h64v128h-64v64h320v-64h64v-64h64v-256h-64v-64h-64v-64h-320z" />
<glyph unicode="&#xd1;" horiz-adv-x="576" d="M0 0v64h64v384h-64v64h192v-128h64v-128h-64v-192h64v-64h-256zM320 0v128h-64v128h64v192h-64v64h256v-64h-64v-448h-128zM128 576v128h128v-64h-64v-64h-64zM256 576v64h64v64h64v-128h-128z" />
<glyph unicode="&#xd2;" d="M256 64v384h-128v-384h128zM64 0v64h-64v384h64v64h256v-64h64v-384h-64v-64h-256zM192 576v64h64v-64h-64zM128 640v64h64v-64h-64z" />
<glyph unicode="&#xd3;" d="M256 64v384h-128v-384h128zM64 0v64h-64v384h64v64h256v-64h64v-384h-64v-64h-256zM128 576v64h64v-64h-64zM192 640v64h64v-64h-64z" />
<glyph unicode="&#xd4;" d="M256 64v384h-128v-384h128zM64 0v64h-64v384h64v64h256v-64h64v-384h-64v-64h-256zM128 576v64h64v-64h-64zM256 576v64h64v-64h-64zM192 640v64h64v-64h-64z" />
<glyph unicode="&#xd5;" d="M256 64v384h-128v-384h128zM64 0v64h-64v384h64v64h256v-64h64v-384h-64v-64h-256zM64 576v128h128v-64h-64v-64h-64zM192 576v64h64v64h64v-128h-128z" />
<glyph unicode="&#xd6;" d="M256 64v384h-128v-384h128zM64 0v64h-64v384h64v64h256v-64h64v-384h-64v-64h-256zM64 576v64h64v-64h-64zM256 576v64h64v-64h-64z" />
<glyph unicode="&#xd7;" horiz-adv-x="512" d="M64 64v64h64v-64h-64zM384 64v64h64v-64h-64zM128 128v64h64v-64h-64zM320 128v64h64v-64h-64zM192 192v128h128v-128h-128zM128 320v64h64v-64h-64zM320 320v64h64v-64h-64zM64 384v64h64v-64h-64zM384 384v64h64v-64h-64z" />
<glyph unicode="&#xd8;" d="M256 64v128h-64v-128h64zM192 320v128h-64v-128h64zM0 -64v128h64v64h-64v320h64v64h192v64h128v-128h-64v-64h64v-320h-64v-64h-192v-64h-128z" />
<glyph unicode="&#xd9;" horiz-adv-x="576" d="M128 0v64h-64v384h-64v64h192v-448h128v448h192v-64h-64v-384h-64v-64h-256zM256 576v64h64v-64h-64zM192 640v64h64v-64h-64z" />
<glyph unicode="&#xda;" horiz-adv-x="576" d="M128 0v64h-64v384h-64v64h192v-448h128v448h192v-64h-64v-384h-64v-64h-256zM192 576v64h64v-64h-64zM256 640v64h64v-64h-64z" />
<glyph unicode="&#xdb;" horiz-adv-x="576" d="M128 0v64h-64v384h-64v64h192v-448h128v448h192v-64h-64v-384h-64v-64h-256zM192 576v64h64v-64h-64zM320 576v64h64v-64h-64zM256 640v64h64v-64h-64z" />
<glyph unicode="&#xdc;" horiz-adv-x="576" d="M128 0v64h-64v384h-64v64h192v-448h128v448h192v-64h-64v-384h-64v-64h-256zM128 576v64h64v-64h-64zM320 576v64h64v-64h-64z" />
<glyph unicode="&#xdd;" horiz-adv-x="576" d="M64 0v64h128v192h-64v128h-64v64h-64v64h192v-192h128v128h-64v64h256v-64h-64v-64h-64v-128h-64v-192h128v-64h-384zM192 576v64h64v-64h-64zM256 640v64h64v-64h-64z" />
<glyph unicode="&#xde;" horiz-adv-x="576" d="M384 192v128h-192v-128h192zM0 0v64h64v384h-64v64h384v-64h-192v-64h256v-64h64v-128h-64v-64h-256v-64h192v-64h-384z" />
<glyph unicode="&#xdf;" horiz-adv-x="512" d="M0 0v64h64v448h64v64h256v-64h64v-128h-64v-64h64v-256h-64v-64h-128v64h64v256h-64v64h64v128h-128v-512h-192z" />
<glyph unicode="&#xe0;" horiz-adv-x="512" d="M256 64v128h-128v-128h128zM64 0v64h-64v128h64v64h192v64h-192v64h256v-64h64v-256h64v-64h-384zM192 448v64h64v-64h-64zM128 512v64h64v-64h-64z" />
<glyph unicode="&#xe1;" horiz-adv-x="512" d="M256 64v128h-128v-128h128zM64 0v64h-64v128h64v64h192v64h-192v64h256v-64h64v-256h64v-64h-384zM128 448v64h64v-64h-64zM192 512v64h64v-64h-64z" />
<glyph unicode="&#xe2;" horiz-adv-x="512" d="M256 64v128h-128v-128h128zM64 0v64h-64v128h64v64h192v64h-192v64h256v-64h64v-256h64v-64h-384zM128 448v64h64v-64h-64zM256 448v64h64v-64h-64zM192 512v64h64v-64h-64z" />
<glyph unicode="&#xe3;" horiz-adv-x="512" d="M256 64v128h-128v-128h128zM64 0v64h-64v128h64v64h192v64h-192v64h256v-64h64v-256h64v-64h-384zM64 448v128h128v-64h-64v-64h-64zM192 448v64h64v64h64v-128h-128z" />
<glyph unicode="&#xe4;" horiz-adv-x="512" d="M256 64v128h-128v-128h128zM64 0v64h-64v128h64v64h192v64h-192v64h256v-64h64v-256h64v-64h-384zM64 448v64h64v-64h-64zM256 448v64h64v-64h-64z" />
<glyph unicode="&#xe5;" horiz-adv-x="512" d="M256 64v128h-128v-128h128zM64 0v64h-64v128h64v64h192v64h-192v64h256v-64h64v-256h64v-64h-384zM192 512v64h-64v-64h64zM64 448v192h192v-192h-192z" />
<glyph unicode="&#xe6;" horiz-adv-x="576" d="M448 64v64h64v-64h-64zM192 64v128h-64v-128h64zM384 256v64h-64v-64h64zM64 0v64h-64v128h64v64h128v64h-128v64h384v-64h64v-128h-192v-128h128v-64h-384z" />
<glyph unicode="&#xe7;" d="M320 64v64h64v-64h-64zM128 -256v64h128v64h-64v128h-128v64h-64v256h64v64h320v-192h-64v128h-192v-256h192v-64h-64v-64h64v-192h-192z" />
<glyph unicode="&#xe8;" d="M320 64v64h64v-64h-64zM256 256v64h-128v-64h128zM64 0v64h-64v256h64v64h256v-64h64v-128h-256v-128h192v-64h-256zM192 448v64h64v-64h-64zM128 512v64h64v-64h-64z" />
<glyph unicode="&#xe9;" d="M320 64v64h64v-64h-64zM256 256v64h-128v-64h128zM64 0v64h-64v256h64v64h256v-64h64v-128h-256v-128h192v-64h-256zM128 448v64h64v-64h-64zM192 512v64h64v-64h-64z" />
<glyph unicode="&#xea;" d="M320 64v64h64v-64h-64zM256 256v64h-128v-64h128zM64 0v64h-64v256h64v64h256v-64h64v-128h-256v-128h192v-64h-256zM128 448v64h64v-64h-64zM256 448v64h64v-64h-64zM192 512v64h64v-64h-64z" />
<glyph unicode="&#xeb;" d="M320 64v64h64v-64h-64zM256 256v64h-128v-64h128zM64 0v64h-64v256h64v64h256v-64h64v-128h-256v-128h192v-64h-256zM64 448v64h64v-64h-64zM256 448v64h64v-64h-64z" />
<glyph unicode="&#xec;" d="M0 0v64h128v256h-128v64h256v-320h128v-64h-384zM192 448v64h64v-64h-64zM128 512v64h64v-64h-64z" />
<glyph unicode="&#xed;" d="M0 0v64h128v256h-128v64h256v-320h128v-64h-384zM128 448v64h64v-64h-64zM192 512v64h64v-64h-64z" />
<glyph unicode="&#xee;" d="M0 0v64h128v256h-128v64h256v-320h128v-64h-384zM64 448v64h64v-64h-64zM192 448v64h64v-64h-64zM128 512v64h64v-64h-64z" />
<glyph unicode="&#xef;" d="M0 0v64h128v256h-128v64h256v-320h128v-64h-384zM64 448v64h64v-64h-64zM256 448v64h64v-64h-64z" />
<glyph unicode="&#xf0;" d="M256 64v256h-128v-256h128zM64 0v64h-64v256h64v64h64v64h64v-64h64v64h-64v64h-64v64h128v-64h64v-64h64v-384h-64v-64h-256zM320 512v64h64v-64h-64z" />
<glyph unicode="&#xf1;" horiz-adv-x="576" d="M0 0v64h64v256h-64v64h384v-64h64v-256h64v-64h-192v320h-128v-320h-192zM128 448v128h128v-64h-64v-64h-64zM256 448v64h64v64h64v-128h-128z" />
<glyph unicode="&#xf2;" d="M256 64v256h-128v-256h128zM64 0v64h-64v256h64v64h256v-64h64v-256h-64v-64h-256zM192 448v64h64v-64h-64zM128 512v64h64v-64h-64z" />
<glyph unicode="&#xf3;" d="M256 64v256h-128v-256h128zM64 0v64h-64v256h64v64h256v-64h64v-256h-64v-64h-256zM128 448v64h64v-64h-64zM192 512v64h64v-64h-64z" />
<glyph unicode="&#xf4;" d="M256 64v256h-128v-256h128zM64 0v64h-64v256h64v64h256v-64h64v-256h-64v-64h-256zM128 448v64h64v-64h-64zM256 448v64h64v-64h-64zM192 512v64h64v-64h-64z" />
<glyph unicode="&#xf5;" d="M256 64v256h-128v-256h128zM64 0v64h-64v256h64v64h256v-64h64v-256h-64v-64h-256zM64 448v128h64v-64h64v-64h-128zM256 448v64h-64v64h128v-128h-64z" />
<glyph unicode="&#xf6;" d="M256 64v256h-128v-256h128zM64 0v64h-64v256h64v64h256v-64h64v-256h-64v-64h-256zM64 448v64h64v-64h-64zM256 448v64h64v-64h-64z" />
<glyph unicode="&#xf7;" horiz-adv-x="576" d="M192 0v64h128v-64h-128zM0 192v64h512v-64h-512zM192 384v64h128v-64h-128z" />
<glyph unicode="&#xf8;" d="M256 64v128h-64v128h-64v-128h64v-64h-64v-64h128zM0 -64v128h64v64h-64v192h64v64h256v-128h64v-192h-64v-64h-256v-64h-64zM320 384v64h64v-64h-64z" />
<glyph unicode="&#xf9;" horiz-adv-x="576" d="M128 0v64h-64v256h-64v64h192v-320h128v256h-64v64h192v-320h64v-64h-384zM256 448v64h64v-64h-64zM192 512v64h64v-64h-64z" />
<glyph unicode="&#xfa;" horiz-adv-x="576" d="M128 0v64h-64v256h-64v64h192v-320h128v256h-64v64h192v-320h64v-64h-384zM192 448v64h64v-64h-64zM256 512v64h64v-64h-64z" />
<glyph unicode="&#xfb;" horiz-adv-x="576" d="M128 0v64h-64v256h-64v64h192v-320h128v256h-64v64h192v-320h64v-64h-384zM128 448v64h64v-64h-64zM256 448v64h64v-64h-64zM192 512v64h64v-64h-64z" />
<glyph unicode="&#xfc;" horiz-adv-x="576" d="M128 0v64h-64v256h-64v64h192v-320h128v256h-64v64h192v-320h64v-64h-384zM128 448v64h64v-64h-64zM320 448v64h64v-64h-64z" />
<glyph unicode="&#xfd;" horiz-adv-x="576" d="M0 -192v64h128v128h64v64h-64v128h-64v128h-64v64h256v-64h-64v-192h64v128h64v128h192v-64h-64v-64h-64v-128h-64v-128h-64v-128h64v-64h-320zM192 448v64h64v-64h-64zM256 512v64h64v-64h-64z" />
<glyph unicode="&#xfe;" horiz-adv-x="512" d="M256 0v64h64v256h-64v64h128v-64h64v-256h-64v-64h-128zM0 -192v64h64v640h-64v64h192v-256h64v-64h-64v-128h64v-64h-64v-192h128v-64h-320z" />
<glyph unicode="&#xff;" horiz-adv-x="576" d="M0 -192v64h128v128h64v64h-64v128h-64v128h-64v64h256v-64h-64v-192h64v128h64v128h192v-64h-64v-64h-64v-128h-64v-128h-64v-128h64v-64h-320zM128 448v64h64v-64h-64zM320 448v64h64v-64h-64z" />
<glyph unicode="&#x152;" horiz-adv-x="576" d="M256 64v384h-64v-64h-64v-256h64v-64h64zM128 0v64h-64v64h-64v256h64v64h64v64h384v-128h-64v64h-64v-128h64v-64h-64v-192h64v64h64v-128h-384z" />
<glyph unicode="&#x153;" horiz-adv-x="576" d="M384 192v128h-64v-128h64zM64 0v64h-64v256h64v64h128v-64h-64v-256h64v-64h-128zM256 0v64h-64v256h64v64h192v-64h64v-192h-192v-64h192v-64h-256z" />
<glyph unicode="&#x178;" horiz-adv-x="576" d="M64 0v64h128v192h-64v128h-64v64h-64v64h192v-192h128v128h-64v64h256v-64h-64v-64h-64v-128h-64v-192h128v-64h-384zM128 576v64h64v-64h-64zM320 576v64h64v-64h-64z" />
<glyph unicode="&#x2000;" horiz-adv-x="384" />
<glyph unicode="&#x2001;" horiz-adv-x="768" />
<glyph unicode="&#x2002;" horiz-adv-x="384" />
<glyph unicode="&#x2003;" horiz-adv-x="768" />
<glyph unicode="&#x2004;" horiz-adv-x="256" />
<glyph unicode="&#x2005;" horiz-adv-x="192" />
<glyph unicode="&#x2006;" horiz-adv-x="128" />
<glyph unicode="&#x2007;" horiz-adv-x="128" />
<glyph unicode="&#x2008;" horiz-adv-x="96" />
<glyph unicode="&#x2009;" horiz-adv-x="153" />
<glyph unicode="&#x200a;" horiz-adv-x="42" />
<glyph unicode="&#x2010;" d="M0 192v64h384v-64h-384z" />
<glyph unicode="&#x2011;" d="M0 192v64h384v-64h-384z" />
<glyph unicode="&#x2012;" d="M0 192v64h384v-64h-384z" />
<glyph unicode="&#x2013;" horiz-adv-x="576" d="M0 192v64h512v-64h-512z" />
<glyph unicode="&#x2014;" horiz-adv-x="640" d="M0 192v64h576v-64h-576z" />
<glyph unicode="&#x2018;" horiz-adv-x="256" d="M128 256v64h-64v128h-64v64h128v-128h64v-128h-64z" />
<glyph unicode="&#x2019;" horiz-adv-x="256" d="M0 256v128h64v128h128v-64h-64v-128h-64v-64h-64z" />
<glyph unicode="&#x201a;" horiz-adv-x="256" d="M0 -128v128h64v128h128v-64h-64v-128h-64v-64h-64z" />
<glyph unicode="&#x201c;" horiz-adv-x="512" d="M128 256v64h-64v128h-64v64h128v-128h64v-128h-64zM384 256v64h-64v128h-64v64h128v-128h64v-128h-64z" />
<glyph unicode="&#x201d;" horiz-adv-x="512" d="M0 256v128h64v128h128v-64h-64v-128h-64v-64h-64zM256 256v128h64v128h128v-64h-64v-128h-64v-64h-64z" />
<glyph unicode="&#x201e;" horiz-adv-x="512" d="M0 -128v128h64v128h128v-64h-64v-128h-64v-64h-64zM256 -128v128h64v128h128v-64h-64v-128h-64v-64h-64z" />
<glyph unicode="&#x2022;" horiz-adv-x="320" d="M64 128v64h-64v128h64v64h128v-64h64v-128h-64v-64h-128z" />
<glyph unicode="&#x2026;" horiz-adv-x="512" d="M0 0v64h64v-64h-64zM192 0v64h64v-64h-64zM384 0v64h64v-64h-64z" />
<glyph unicode="&#x202f;" horiz-adv-x="153" />
<glyph unicode="&#x2039;" horiz-adv-x="256" d="M128 0v64h64v-64h-64zM64 64v64h64v-64h-64zM0 128v128h64v-128h-64zM64 256v64h64v-64h-64zM128 320v64h64v-64h-64z" />
<glyph unicode="&#x203a;" horiz-adv-x="256" d="M0 0v64h64v-64h-64zM64 64v64h64v-64h-64zM128 128v128h64v-128h-64zM64 256v64h64v-64h-64zM0 320v64h64v-64h-64z" />
<glyph unicode="&#x205f;" horiz-adv-x="192" />
<glyph unicode="&#x20ac;" horiz-adv-x="512" d="M384 64v64h64v-64h-64zM192 0v64h-64v64h-64v64h-64v64h64v64h-64v64h128v64h64v-64h128v-64h-128v-64h128v-64h-128v-64h64v-64h128v-64h-192zM384 320v128h-192v64h256v-192h-64z" />
<glyph unicode="&#x2122;" horiz-adv-x="704" d="M512 320v64h-128v-64h128zM320 320v128h-64v64h-64v-192h128zM0 256v64h128v192h-64v-64h-64v128h384v-128h128v128h128v-64h-64v-192h64v-64h-640z" />
<glyph unicode="&#x25fc;" horiz-adv-x="385" d="M0 385h385v-385h-385v385z" />
<glyph unicode="&#xfb01;" horiz-adv-x="896" d="M576 64v256h-320v-256h320zM0 0v64h128v256h-128v64h128v128h64v64h320v-64h-256v-128h448v-320h128v-64h-832zM576 448v128h128v-128h-128z" />
<glyph unicode="&#xfb02;" horiz-adv-x="960" d="M576 64v448h-320v-128h192v-64h-192v-256h320zM0 0v64h128v256h-128v64h128v128h64v64h512v-512h192v-64h-896z" />
<glyph unicode="&#xfb03;" horiz-adv-x="1344" d="M576 64v256h-320v-256h320zM1024 64v256h-320v-256h320zM0 0v64h128v256h-128v64h128v128h64v64h320v-64h-256v-128h320v128h64v64h320v-64h-256v-128h448v-320h128v-64h-1280zM1024 448v128h128v-128h-128z" />
<glyph unicode="&#xfb04;" horiz-adv-x="1344" d="M576 64v256h-320v-256h320zM1024 64v448h-320v-128h192v-64h-192v-256h320zM0 0v64h128v256h-128v64h128v128h64v64h320v-64h-256v-128h320v128h64v64h512v-512h128v-64h-1280z" />
</font>
</defs>
</svg>
